How to Train Your Dragon 3 2018 NEW 720p HDCAM.LLG

seeders: 22
leechers: 14
updated:
Added by LifeLongg in Other


# LIMITED VPN OFFER #
strongly advises you to use NordVPN while downloading torrents.
NordVPN is the safest VPN on the market, and the fastest VPN as well.
No IP Log is saved using NordVPN, avoid other VPN providers and choose the safest one.
Click here and buy NordVPN it's on rebates today!
We were able to verify your IP: 176.99.4.11, country: Russian Federation.
If we can do that, others can too, protect your privacy with NordVPN.
is trying the best for you!
# LIMITED VPN OFFER #


How to Train Your Dragon 3 2018 NEW 720p HDCAM.LLG Size: 1.8 GB (1932735283 Bytes)

Description

Quote: 
 
 
******************************Thumbnail:**********************

 

******************************Screenshots:********************

Screenshot 1  

Screenshot 2  

Screenshot 3  

Screenshot 4  

Screenshot 5  

Screenshot 6  

Screenshot 7  

Screenshot 8  

Screenshot 9  

Screenshot 0  


******************************************************

How to Train Your Dragon 3 2018 NEW 720p HDCAM.LLG.mp4
Format : MPEG-4
Format profile : Base Media
Codec ID : isom (isom/iso2/avc1/mp41)
File size : 1.78 GiB
Duration : 1 h 35 min
Overall bit rate mode : Variable
Overall bit rate : 2 680 kb/s


Video
ID : 1
Format : AVC
Format/Info : Advanced Video Codec
Format profile : [email protected] 
Format settings : CABAC / 1 Ref Frames
Format settings, CABAC : Yes
Format settings, RefFrames : 1 frame
Codec ID : avc1
Codec ID/Info : Advanced Video Coding
Duration : 1 h 35 min
Bit rate mode : Variable
Bit rate : 2 485 kb/s
Maximum bit rate : 7 500 kb/s
Width : 1 280 pixels
Height : 536 pixels
Display aspect ratio : 2.40:1
Frame rate mode : Constant
Frame rate : 29.970 (29970/1000) FPS
Original frame rate : 29.970 (30000/1001) FPS
Color space : YUV
Chroma subsampling : 4:2:0
Bit depth : 8 bits
Scan type : Progressive
Bits/(Pixel*Frame) : 0.121
Stream size : 1.65 GiB (93%)

Audio
ID : 2
Format : AC-3
Format/Info : Audio Coding 3
Commercial name : Dolby Digital
Codec ID : ac-3
Duration : 1 h 35 min
Bit rate mode : Constant
Bit rate : 192 kb/s
Channel(s) : 2 channels
Channel layout : L R
Sampling rate : 48.0 kHz
Frame rate : 31.250 FPS (1536 SPF)
Bit depth : 16 bits
Compression mode : Lossy
Stream size : 131 MiB (7%)
Service kind : Complete Main
Default : Yes
Alternate group : 1



******************************************************** 
  
 

Sharing Widget


Download torrent
Size: 1.8 GB
seeders:22
leechers:14
How to Train Your Dragon 3 2018 NEW 720p HDCAM.LLG - (1932735283 Bytes)



To share this torrent use the code below and insert it into comments, status messages, forum posts or your signature.

Torrent: How to Train Your Dragon 3 2018 NEW 720p HDCAM.LLG

Trackers

tracker name
udp://tracker.openbittorrent.com:80/announce
udp://tracker.opentrackr.org:1337/announce
UDP://TRACKER.LEECHERS-PARADISE.ORG:6969/ANNOUNCE
udp://tracker.zer0day.to:1337/announce
udp://tracker.leechers-paradise.org:6969/announce
udp://coppersurfer.tk:6969/announce
ĀµTorrent compatible trackers list

Locations

name
KickassTorrents
Torrent hash: 22E36FD9A1B90B568C6F8C6A0CBC591401C4F65D

# LIMITED VPN OFFER #
strongly advises you to use NordVPN while downloading torrents.
NordVPN is the safest VPN on the market, and the fastest VPN as well.
No IP Log is saved using NordVPN, avoid other VPN providers and choose the safest one.
Click here and buy NordVPN it's on rebates today!
We were able to verify your IP: 176.99.4.11, country: Russian Federation.
If we can do that, others can too, protect your privacy with NordVPN.
is trying the best for you!
# LIMITED VPN OFFER #


All Comments

*comments box temporarily disabled*
Report a bug twisted666 | Cuckoo - Season 5 | Sharman Joshi