Beautifully.Broken.2018.DVDRip.x264.LLG

seeders: 7
leechers: 2
updated:
Added by LifeLongg in Other


# LIMITED VPN OFFER #
strongly advises you to use NordVPN while downloading torrents.
NordVPN is the safest VPN on the market, and the fastest VPN as well.
No IP Log is saved using NordVPN, avoid other VPN providers and choose the safest one.
Click here and buy NordVPN it's on rebates today!
We were able to verify your IP: 176.99.4.11, country: Russian Federation.
If we can do that, others can too, protect your privacy with NordVPN.
is trying the best for you!
# LIMITED VPN OFFER #


Beautifully.Broken.2018.DVDRip.x264.LLG Size: 836.8 MB (877448396 Bytes)

Description

Quote: 
 
 
******************************Thumbnail:**********************

 

******************************Screenshots:********************

Screenshot 1  

Screenshot 2  

Screenshot 3  

Screenshot 4  

Screenshot 5  

Screenshot 6  

Screenshot 7  

Screenshot 8  

Screenshot 9  

Screenshot 0  


******************************************************

Beautifully.Broken.2018.DVDRip.x264.LLG.mp4
Format : MPEG-4
Format profile : Base Media
Codec ID : isom (isom/iso2/avc1/mp41)
File size : 824 MiB
Duration : 1 h 50 min
Overall bit rate mode : Variable
Overall bit rate : 1 042 kb/s

Video
ID  : 1
Format : AVC
Format/Info : Advanced Video Codec
Format profile : [email protected] 
Format settings : CABAC / 1 Ref Frames
Format settings, CABAC : Yes
Format settings, RefFrames : 1 frame
Codec ID : avc1
Codec ID/Info : Advanced Video Coding
Duration : 1 h 50 min
Bit rate mode : Variable
Bit rate : 908 kb/s
Maximum bit rate : 2 700 kb/s
Width : 720 pixels
Height : 406 pixels
Display aspect ratio : 16:9
Frame rate mode : Constant
Frame rate : 23.976 (23976/1000) FPS
Color space : YUV
Chroma subsampling : 4:2:0
Bit depth : 8 bits
Scan type : Progressive
Bits/(Pixel*Frame) : 0.129
Stream size : 718 MiB (87%)
Language : English


Audio
ID : 2
Format : AAC LC
Format/Info : Advanced Audio Codec Low Complexity
Codec ID : mp4a-40-2
Duration : 1 h 50 min
Bit rate mode : Constant
Bit rate : 129 kb/s
Channel(s) : 2 channels
Channel layout : L R
Sampling rate : 48.0 kHz
Frame rate : 46.875 FPS (1024 SPF)
Compression mode : Lossy
Stream size : 102 MiB (12%)
Language : English
Default : Yes
Alternate group : 1



******************************************************** 
  
 

Sharing Widget


Download torrent
Size: 836.8 MB
seeders:7
leechers:2
Beautifully.Broken.2018.DVDRip.x264.LLG - (877448396 Bytes)



To share this torrent use the code below and insert it into comments, status messages, forum posts or your signature.

Torrent: Beautifully.Broken.2018.DVDRip.x264.LLG

Trackers

tracker name
udp://tracker.openbittorrent.com:80/announce
udp://tracker.opentrackr.org:1337/announce
UDP://TRACKER.LEECHERS-PARADISE.ORG:6969/ANNOUNCE
udp://tracker.zer0day.to:1337/announce
udp://tracker.leechers-paradise.org:6969/announce
udp://coppersurfer.tk:6969/announce
ĀµTorrent compatible trackers list

Locations

name
KickassTorrents
Torrent hash: C1FBBBD575D8BC86CE0466D75BBD5FFECBA6FE1C

# LIMITED VPN OFFER #
strongly advises you to use NordVPN while downloading torrents.
NordVPN is the safest VPN on the market, and the fastest VPN as well.
No IP Log is saved using NordVPN, avoid other VPN providers and choose the safest one.
Click here and buy NordVPN it's on rebates today!
We were able to verify your IP: 176.99.4.11, country: Russian Federation.
If we can do that, others can too, protect your privacy with NordVPN.
is trying the best for you!
# LIMITED VPN OFFER #


All Comments

*comments box temporarily disabled*
Report a bug Garden & Patio | Hulk Hogan | Our Souls at Night (2017)